PDA

Xem phiên bản đầy đủ : Hài kịch Hoa hậu phu nhân



mozart_nht
07-14-2013, 05:14 PM
Hài kịch : Hoa Hậu Phu Nhân (Thúy Nga 108)

Diễn viên : Chí Tài, Việt Hương, Hoài Tâm, Thúy Nga, Nguyên Khoa

http://farm4.staticflickr.com/3810/9030722396_695500d6f9_c.jpg



General
Unique ID : 186927834801340208896976572051680985045 (0x8CA0FDCF8EE7C21D9FFCDAD05A04FFD5)
Complete name : C:\Documents and Settings\Tung Vu\Desktop\log\17 - Hai kich - Hoa hau phu nhan - PBN108 (1080p.H264.AC3).mkv
Format : Matroska
Format version : Version 4 / Version 2
File size : 1.43 GiB
Duration : 31mn 0s
Overall bit rate : 6 582 Kbps
Movie name : Hai kich : Hoa hau phu nhan - (Chi Tai - Viet Huong - Thuy Nga) - Thuy Nga 108 - Encoded by Tungnv
Encoded date : UTC 2013-06-12 08:17:15
Writing application : mkvmerge v6.1.0 ('Old Devil') built on Mar 2 2013 14:32:37
Writing library : libebml v1.3.0 + libmatroska v1.4.0

Video
ID : 1
Format : AVC
Format/Info : Advanced Video Codec
Format profile : High@L4.0
Format settings, CABAC : Yes
Format settings, ReFrames : 4 frames
Codec ID : V_MPEG4/ISO/AVC
Duration : 31mn 0s
Bit rate : 5 555 Kbps
Width : 1 920 pixels
Height : 1 080 pixels
Display aspect ratio : 16:9
Frame rate mode : Constant
Frame rate : 29.970 fps
Color space : YUV
Chroma subsampling : 4:2:0
Bit depth : 8 bits
Scan type : Progressive
Bits/(Pixel*Frame) : 0.089
Stream size : 1.20 GiB (84%)
Writing library : x264 core 133 r2334 a3ac64b
Encoding settings : cabac=1 / ref=3 / deblock=1:0:0 / analyse=0x3:0x113 / me=hex / subme=7 / psy=1 / psy_rd=1.00:0.00 / mixed_ref=1 / me_range=16 / chroma_me=1 / trellis=1 / 8x8dct=1 / cqm=0 / deadzone=21,11 / fast_pskip=1 / chroma_qp_offset=-2 / threads=12 / lookahead_threads=2 / sliced_threads=0 / nr=0 / decimate=1 / interlaced=0 / bluray_compat=0 / constrained_intra=0 / bframes=3 / b_pyramid=2 / b_adapt=1 / b_bias=0 / direct=1 / weightb=1 / open_gop=0 / weightp=2 / keyint=300 / keyint_min=29 / scenecut=40 / intra_refresh=0 / rc_lookahead=40 / rc=crf / mbtree=1 / crf=23.0 / qcomp=0.60 / qpmin=0 / qpmax=69 / qpstep=4 / ip_ratio=1.40 / aq=1:1.00
Default : Yes
Forced : No

Audio #1
ID : 2
Format : AC-3
Format/Info : Audio Coding 3
Mode extension : CM (complete main)
Format settings, Endianness : Big
Codec ID : A_AC3
Duration : 31mn 0s
Bit rate mode : Constant
Bit rate : 448 Kbps
Channel(s) : 2 channels
Channel positions : Front: L R
Sampling rate : 48.0 KHz
Bit depth : 16 bits
Compression mode : Lossy
Stream size : 99.4 MiB (7%)
Default : Yes
Forced : No

Audio #2
ID : 3
Format : AC-3
Format/Info : Audio Coding 3
Mode extension : CM (complete main)
Format settings, Endianness : Big
Codec ID : A_AC3
Duration : 31mn 0s
Bit rate mode : Constant
Bit rate : 448 Kbps
Channel(s) : 6 channels
Channel positions : Front: L C R, Side: L R, LFE
Sampling rate : 48.0 KHz
Bit depth : 16 bits
Compression mode : Lossy
Stream size : 99.4 MiB (7%)
Default : No
Forced : No



http://image.hdvnbits.org/graphic/images/2012/February/29/EC14_4F4D2D39.jpg
http://www.fshare.vn/file/TGV0ZYJSPT/